183

Black Mass 2015 1080p WEB-DL

111f4552d75c6dd565f5d5a5c00f34e8bf98b7fa.jpg

34421704226475466442_thumb.png.jpg02671796541271382165_thumb.png.jpg80522495613317259906_thumb.png.jpg58811309049693313131_thumb.png.jpg47726848838629338506_thumb.png.jpg68698409039432698587_thumb.png.jpg

 

Video
ID                                       : 1
Format                                   : AVC
Format/Info                              : Advanced Video Codec
Format profile                           : High@L4
Format settings, CABAC                   : Yes
Format settings, ReFrames                : 5 frames
Codec ID                                 : V_MPEG4/ISO/AVC
Duration                                 : 2h 2mn
Bit rate                                 : 4 475 Kbps
Width                                    : 1 916 pixels
Height                                   : 796 pixels
Display aspect ratio                     : 2.40:1
Frame rate mode                          : Constant
Frame rate                               : 23.976 fps
Color space                              : YUV
Chroma subsampling                       : 4:2:0
Bit depth                                : 8 bits
Scan type                                : Progressive
Bits/(Pixel*Frame)                       : 0.122
Stream size                              : 3.83 GiB (90%)
Title                                    : Black.Mass.2015.1080p.WEB-DL.DD5.1.H264-RARBG
Language                                 : English
Default                                  : Yes
Forced                                   : No
Color range                              : Limited
Color primaries                          : BT.709
Transfer characteristics                 : BT.709
Matrix coefficients                      : BT.709

Audio
ID                                       : 2
Format                                   : AC-3
Format/Info                              : Audio Coding 3
Mode extension                           : CM (complete main)
Format settings, Endianness              : Big
Codec ID                                 : A_AC3
Duration                                 : 2h 2mn
Bit rate mode                            : Constant
Bit rate                                 : 384 Kbps
Channel(s)                               : 6 channels
Channel positions                        : Front: L C R, Side: L R, LFE
Sampling rate                            : 48.0 KHz
Frame rate                               : 31.250 fps (1536 spf)
Compression mode                         : Lossy
Stream size                              : 337 MiB (8%)
Title                                    : Black.Mass.2015.1080p.WEB-DL.DD5.1.H264-RARBG
Language                                 : English
Default                                  : Yes
Forced                                   : No

Text
ID                                       : 3
Format                                   : UTF-8
Codec ID                                 : S_TEXT/UTF8
Codec ID/Info                            : UTF-8 Plain Text
Language                                 : English
Default                                  : Yes
Forced                                   : No

Menu
00:00:00.000                             : en:1
00:09:44.000                             : en:2
00:18:27.000                             : en:3
00:28:49.000                             : en:4
00:41:49.000                             : en:5
00:51:58.000                             : en:6
00:59:19.000                             : en:7
01:09:17.000                             : en:8
01:19:53.000                             : en:9
01:28:47.000                             : en:10
01:39:44.000                             : en:11
01:52:18.000                             : en:12
01:55:11.000                             : en:13

 

Trailer: Play trailer
Black.Mass.2015.1080p.WEB-DL.DD5.1.H264-RARBG http://imdb.com/title/tt1355683/
Size: 4.25 GB
Show/Hide Files:
5 files
Title: Black Mass (2015)
IMDB Rating: 7.1/10 from 53617 users Updated : 2015-12-30
Rotten Rating: 6.7/10
RottenTomatoes: 76% 74%
Genres: Biography , Crime , Drama
Actors: Johnny Depp , Benedict Cumberbatch , Dakota Johnson , Joel Edgerton , Kevin Bacon , Peter Sarsgaard , Jesse Plemons , Rory Cochrane ,David Harbour ,
Adam Scott , Corey Stoll , Julianne Nicholson , W. Earl Brown , Bill Camp , Juno Temple
Director: Scott Cooper
Runtime: 122
Year: 2015