escort bursa-beylikdüzü escort-bursa escort-anadolu yakası escort-avrupa yakası escort-bodrum escort-denizli escort bayan-marmaris escort-kayseri escort-sakarya escort-samsun escort-mersin escort bayan-bursa escort-kocaeli escort

183

Black Mass 2015 720p WEB-DL

bf903abaa4ca90ee886fe9c730e295a4bbcf9784.jpg

03691532133703409499_thumb.png.jpg76366222139074806356_thumb.png.jpg03014472193154404724_thumb.png.jpg59006797675023973821_thumb.png.jpg33008665065133766481_thumb.png.jpg

 

Video
ID                                       : 0
Format                                   : MPEG-4 Visual
Format profile                           : Simple@L5
Format settings, BVOP                    : No
Format settings, QPel                    : No
Format settings, GMC                     : No warppoints
Format settings, Matrix                  : Default (H.263)
Codec ID                                 : XVID
Codec ID/Hint                            : XviD
Duration                                 : 2h 2mn
Bit rate                                 : 3 666 Kbps
Width                                    : 1 280 pixels
Height                                   : 532 pixels
Display aspect ratio                     : 2.40:1
Frame rate                               : 23.976 fps
Color space                              : YUV
Chroma subsampling                       : 4:2:0
Bit depth                                : 8 bits
Scan type                                : Progressive
Compression mode                         : Lossy
Bits/(Pixel*Frame)                       : 0.225
Stream size                              : 3.14 GiB (90%)
Writing library                          : Lavc56.13.100

Audio
ID                                       : 1
Format                                   : AC-3
Format/Info                              : Audio Coding 3
Mode extension                           : CM (complete main)
Format settings, Endianness              : Big
Codec ID                                 : 2000
Duration                                 : 2h 2mn
Bit rate mode                            : Constant
Bit rate                                 : 384 Kbps
Channel(s)                               : 6 channels
Channel positions                        : Front: L C R, Side: L R, LFE
Sampling rate                            : 48.0 KHz
Frame rate                               : 31.250 fps (1536 spf)
Compression mode                         : Lossy
Stream size                              : 337 MiB (9%)
Alignment                                : Aligned on interleaves
Interleave, duration                     : 42 ms (1.00 video frame)
Interleave, preload duration             : 512 ms

 

Trailer: Play trailer
Black.Mass.2015.720p.WEB-DL.XviD.AC3-RARBG http://imdb.com/title/tt1355683/
Size: 3.48 GB
Show/Hide Files:
5 files
Title: Black Mass (2015)
IMDB Rating: 7.1/10 from 53617 users Updated : 2015-12-30
Rotten Rating: 6.7/10
RottenTomatoes: 76% 74%
Genres: Biography , Crime , Drama
Actors: Johnny Depp , Benedict Cumberbatch , Dakota Johnson , Joel Edgerton , Kevin Bacon , Peter Sarsgaard , Jesse Plemons , Rory Cochrane ,David Harbour ,
Adam Scott , Corey Stoll , Julianne Nicholson , W. Earl Brown , Bill Camp , Juno Temple
Director: Scott Cooper
Runtime: 122
Year: 2015