226

Experimenter 2015 LIMITED 1080p BluRay X264

c0541535732984d814932a6b6503b57e8d452bf4

71840663604840477127_thumb

 

Video
ID                                       : 1
Format                                   : AVC
Format/Info                              : Advanced Video Codec
Format profile                           : High@L4.1
Format settings, CABAC                   : Yes
Format settings, ReFrames                : 4 frames
Codec ID                                 : V_MPEG4/ISO/AVC
Duration                                 : 1h 38mn
Bit rate                                 : 8 062 Kbps
Width                                    : 1 920 pixels
Height                                   : 1 080 pixels
Display aspect ratio                     : 16:9
Frame rate mode                          : Constant
Frame rate                               : 23.976 (24000/1001) fps
Color space                              : YUV
Chroma subsampling                       : 4:2:0
Bit depth                                : 8 bits
Scan type                                : Progressive
Bits/(Pixel*Frame)                       : 0.162
Stream size                              : 5.39 GiB (82%)
Writing library                          : x264 core 148 r2638 7599210
Encoding settings                        : cabac=1 / ref=4 / deblock=1:-3:-3 / analyse=0x3:0x113 / me=umh / subme=8 / psy=1 / psy_rd=1.00:0.00 / mixed_ref=1 / me_range=16 / chroma_me=1 / trellis=1 / 8x8dct=1 / cqm=0 / deadzone=21,11 / fast_pskip=1 / chroma_qp_offset=-2 / threads=24 / lookahead_threads=4 / sliced_threads=0 / nr=0 / decimate=1 / interlaced=0 / bluray_compat=0 / constrained_intra=0 / bframes=3 / b_pyramid=2 / b_adapt=2 / b_bias=0 / direct=3 / weightb=1 / open_gop=0 / weightp=2 / keyint=240 / keyint_min=24 / scenecut=40 / intra_refresh=0 / rc_lookahead=50 / rc=2pass / mbtree=1 / bitrate=8062 / ratetol=1.0 / qcomp=0.60 / qpmin=0 / qpmax=69 / qpstep=4 / cplxblur=20.0 / qblur=0.5 / ip_ratio=1.40 / aq=1:1.00
Language                                 : English
Default                                  : Yes
Forced                                   : No
Statistics Tags Issue                    : no_variable_data 1970-01-01 00:00:00 / no_variable_data 2010-02-22 21:41:29
FromStats_BitRate                        : 8059359
FromStats_Duration                       : 01:38:04.879000000
FromStats_FrameCount                     : 141096
FromStats_StreamSize                     : 5928544125

Audio
ID                                       : 2
Format                                   : DTS
Format/Info                              : Digital Theater Systems
Mode                                     : 16
Format settings, Endianness              : Big
Codec ID                                 : A_DTS
Duration                                 : 1h 38mn
Bit rate mode                            : Constant
Bit rate                                 : 1 509 Kbps
Channel(s)                               : 6 channels
Channel positions                        : Front: L C R, Side: L R, LFE
Sampling rate                            : 48.0 KHz
Frame rate                               : 93.750 fps (512 spf)
Bit depth                                : 24 bits
Compression mode                         : Lossy
Stream size                              : 1.03 GiB (16%)
Language                                 : English
Default                                  : Yes
Forced                                   : No
Statistics Tags Issue                    : no_variable_data 1970-01-01 00:00:00 / no_variable_data 2010-02-22 21:41:29
FromStats_BitRate                        : 1508999
FromStats_Duration                       : 01:38:04.886000000
FromStats_FrameCount                     : 551708
FromStats_StreamSize                     : 1110036496

Text #1
ID                                       : 3
Format                                   : UTF-8
Codec ID                                 : S_TEXT/UTF8
Codec ID/Info                            : UTF-8 Plain Text
Language                                 : English
Default                                  : No
Forced                                   : No
Statistics Tags Issue                    : no_variable_data 1970-01-01 00:00:00 / no_variable_data 2010-02-22 21:41:29
FromStats_BitRate                        : 84
FromStats_Duration                       : 01:32:10.399000000
FromStats_FrameCount                     : 1483
FromStats_StreamSize                     : 58371

Text #2
ID                                       : 4
Format                                   : UTF-8
Codec ID                                 : S_TEXT/UTF8
Codec ID/Info                            : UTF-8 Plain Text
Title                                    : SDH
Language                                 : English
Default                                  : No
Forced                                   : No
Statistics Tags Issue                    : no_variable_data 1970-01-01 00:00:00 / no_variable_data 2010-02-22 21:41:29
FromStats_BitRate                        : 87
FromStats_Duration                       : 01:32:21.243000000
FromStats_FrameCount                     : 1559
FromStats_StreamSize                     : 60871

Menu
00:00:00.000                             : en:00:00:00.000
00:08:28.466                             : en:00:08:28.466
00:18:35.197                             : en:00:18:35.197
00:26:20.078                             : en:00:26:20.078
00:32:43.879                             : en:00:32:43.879
00:42:01.227                             : en:00:42:01.227
00:48:03.589                             : en:00:48:03.589
00:55:49.471                             : en:00:55:49.471
01:03:14.666                             : en:01:03:14.666
01:13:47.256                             : en:01:13:47.256
01:26:01.448                             : en:01:26:01.448
01:33:14.255                             : en:01:33:14.255

 

Trailer: Play trailer
Experimenter.2015.LIMITED.1080p.BluRay.X264-AMIABLE http://imdb.com/title/tt3726704/
Size: 6.59 GB
Show/Hide Files:
6 files
Title: Experimenter (2015)
IMDB Rating: 6.7/10 from 2769 users Updated : 2015-12-30
Rotten Rating: 7.3/10
RottenTomatoes: 88% 62%
Genres: Biography , Drama , History
Actors: Taryn Manning , Winona Ryder , Anton Yelchin , Kellan Lutz , Peter Sarsgaard , John Leguizamo , Lori Singer , Anthony Edwards , Dennis Haysbert ,
Vondie Curtis-Hall , Jim Gaffigan , Josh Hamilton , Edoardo Ballerini , Emily Tremaine , Michael Siberry
Director: Michael Almereyda
Runtime: 98
Year: 2015