escort bursa-beylikdüzü escort-bursa escort-anadolu yakası escort-avrupa yakası escort-bodrum escort-denizli escort bayan-marmaris escort-kayseri escort-sakarya escort-samsun escort-mersin escort bayan-bursa escort-kocaeli escort

313

Fathers and Daughters 2015 1080p BluRay

65f4b7fe864d432484fb48e8c6f7996d48eb2d48.jpg

95518766007549004334_thumb.png.jpg64030534684770152015_thumb.png.jpg23204682631701410615_thumb.png.jpg01079413827535061207_thumb.png.jpg42988841705088069146_thumb.png.jpg57419474761039644246_thumb.png.jpg

Video
ID                                       : 1
Format                                   : AVC
Format/Info                              : Advanced Video Codec
Format profile                           : High@L4.1
Format settings, CABAC                   : Yes
Format settings, ReFrames                : 5 frames
Codec ID                                 : V_MPEG4/ISO/AVC
Duration                                 : 1h 56mn
Bit rate                                 : 9 618 Kbps
Width                                    : 1 920 pixels
Height                                   : 800 pixels
Display aspect ratio                     : 2.40:1
Frame rate mode                          : Constant
Frame rate                               : 24.000 fps
Color space                              : YUV
Chroma subsampling                       : 4:2:0
Bit depth                                : 8 bits
Scan type                                : Progressive
Bits/(Pixel*Frame)                       : 0.261
Stream size                              : 7.83 GiB (86%)
Title                                    : Fathers.and.Daughters.2015.1080p.BluRay.x264.DTS-FGT
Writing library                          : x264 core 148 r2638 7599210
Encoding settings                        : cabac=1 / ref=5 / deblock=1:-2:-2 / analyse=0x3:0x113 / me=hex / subme=7 / psy=1 / psy_rd=1.00:0.15 / mixed_ref=1 / me_range=16 / chroma_me=1 / trellis=2 / 8x8dct=1 / cqm=0 / deadzone=21,11 / fast_pskip=0 / chroma_qp_offset=-3 / threads=12 / lookahead_threads=2 / sliced_threads=0 / nr=0 / decimate=1 / interlaced=0 / bluray_compat=0 / constrained_intra=0 / bframes=3 / b_pyramid=2 / b_adapt=2 / b_bias=0 / direct=3 / weightb=1 / open_gop=0 / weightp=2 / keyint=240 / keyint_min=24 / scenecut=40 / intra_refresh=0 / rc_lookahead=40 / rc=2pass / mbtree=0 / bitrate=9618 / ratetol=1.0 / qcomp=0.60 / qpmin=0 / qpmax=69 / qpstep=4 / cplxblur=20.0 / qblur=0.5 / vbv_maxrate=50000 / vbv_bufsize=50000 / nal_hrd=none / filler=0 / ip_ratio=1.40 / pb_ratio=1.30 / aq=1:1.00
Language                                 : English
Default                                  : Yes
Forced                                   : No

Audio
ID                                       : 2
Format                                   : DTS
Format/Info                              : Digital Theater Systems
Mode                                     : 16
Format settings, Endianness              : Big
Codec ID                                 : A_DTS
Duration                                 : 1h 56mn
Bit rate mode                            : Constant
Bit rate                                 : 1 509 Kbps
Channel(s)                               : 6 channels
Channel positions                        : Front: L C R, Side: L R, LFE
Sampling rate                            : 48.0 KHz
Frame rate                               : 93.750 fps (512 spf)
Bit depth                                : 24 bits
Compression mode                         : Lossy
Stream size                              : 1.23 GiB (14%)
Title                                    : Fathers.and.Daughters.2015.1080p.BluRay.x264.DTS-FGT
Language                                 : English
Default                                  : No
Forced                                   : No

Trailer: Play trailer
Fathers.and.Daughters.2015.1080p.BluRay.x264.DTS-FGT http://imdb.com/title/tt2582502/
Size: 9.06 GB
Show/Hide Files:
3 files
Title: Fathers and Daughters (2015)
IMDB Rating: 6.8/10 from 761 users Updated : 2016-01-13
Genres: Drama
Actors: Amanda Seyfried , Diane Kruger , Aaron Paul , Russell Crowe , Jane Fonda , Ryan Eggold , Janet McTeer , Bruce Greenwood , Quvenzhané Wallis ,
Octavia Spencer , Kylie Rogers , Michelle Veintimilla , Claire Chapelli , Lindsey Elizabeth , Chris A. Riskus
Director: Gabriele Muccino
Runtime: 116
Year: 2015