262

Goosebumps 2015 BRRip XviD

d0dfd2d048234be632f75a77a012c9d97a7591d7.jpg_c_2.jpg

05096629259491211876_thumb.png.jpg60045970102788170804_thumb.png.jpg02071984020119339633_thumb.png.jpg51059980940921056435_thumb.png.jpg12814850208232729162_thumb.png.jpg

 

Video
ID                                       : 0
Format                                   : MPEG-4 Visual
Format profile                           : Simple@L5
Format settings, BVOP                    : No
Format settings, QPel                    : No
Format settings, GMC                     : No warppoints
Format settings, Matrix                  : Default (H.263)
Codec ID                                 : XVID
Codec ID/Hint                            : XviD
Duration                                 : 1h 43mn
Bit rate                                 : 1 596 Kbps
Width                                    : 720 pixels
Height                                   : 302 pixels
Display aspect ratio                     : 2.40:1
Original display aspect ratio            : 2.40:1
Frame rate                               : 23.976 fps
Color space                              : YUV
Chroma subsampling                       : 4:2:0
Bit depth                                : 8 bits
Scan type                                : Progressive
Compression mode                         : Lossy
Bits/(Pixel*Frame)                       : 0.306
Stream size                              : 1.15 GiB (89%)
Title                                    : RARBG.COM – Goosebumps.2015.BRRip.XviD.MP3-RARBG
Writing library                          : Lavc56.60.100

Audio
ID                                       : 1
Format                                   : MPEG Audio
Format version                           : Version 1
Format profile                           : Layer 3
Mode                                     : Joint stereo
Mode extension                           : MS Stereo
Codec ID                                 : 55
Codec ID/Hint                            : MP3
Duration                                 : 1h 43mn
Bit rate mode                            : Constant
Bit rate                                 : 192 Kbps
Channel(s)                               : 2 channels
Sampling rate                            : 48.0 KHz
Compression mode                         : Lossy
Stream size                              : 142 MiB (11%)
Alignment                                : Aligned on interleaves
Interleave, duration                     : 24 ms (0.58 video frame)
Interleave, preload duration             : 24 ms

 

Trailer: Play trailer
Goosebumps.2015.BRRip.XviD.MP3-RARBG http://imdb.com/title/tt1051904/
Size: 1.32 GB
Show/Hide Files:
7 files
Title: Goosebumps (2015)
IMDB Rating: 6.6/10 from 15654 users Updated : 2015-12-30
Rotten Rating: 6.3/10
RottenTomatoes: 74% 72%
Genres: Adventure , Comedy , Fantasy , Horror
Actors: Jack Black , Dylan Minnette , Odeya Rush , Ryan Lee , Amy Ryan , Jillian Bell , Ken Marino , Halston Sage , Steven Krueger ,
Keith Arthur Bolden , Amanda Lund , Timothy Simons , Karan Soni , R.L. Stine , Caleb Emery
Director: Rob Letterman
Runtime: 103
Year: 2015