escort bursa-beylikdüzü escort-bursa escort-anadolu yakası escort-avrupa yakası escort-bodrum escort-denizli escort bayan-marmaris escort-kayseri escort-sakarya escort-samsun escort-mersin escort bayan-bursa escort-kocaeli escort

263

Hall Pass 2011 1080p BluRay x264

0614b30932d8f8b9f6780de7c7be23985260fd27.jpg

28865207273826051137_thumb.png.jpg91304922750541520302_thumb.png.jpg51035847277621317002_thumb.png.jpg76515053107565455875_thumb.png.jpg63900097492626560388_thumb.png.jpg54313823754321510154_thumb.png.jpg

 

Video
ID                                       : 1
Format                                   : AVC
Format/Info                              : Advanced Video Codec
Format profile                           : High@L4.1
Format settings, CABAC                   : Yes
Format settings, ReFrames                : 5 frames
Codec ID                                 : V_MPEG4/ISO/AVC
Duration                                 : 1h 51mn
Bit rate                                 : 8 669 Kbps
Width                                    : 1 920 pixels
Height                                   : 800 pixels
Display aspect ratio                     : 2.40:1
Frame rate mode                          : Constant
Frame rate                               : 23.976 fps
Color space                              : YUV
Chroma subsampling                       : 4:2:0
Bit depth                                : 8 bits
Scan type                                : Progressive
Bits/(Pixel*Frame)                       : 0.235
Stream size                              : 6.60 GiB (83%)
Writing library                          : x264 core 115 r1995 c1e60b9
Encoding settings                        : cabac=1 / ref=5 / deblock=1:0:0 / analyse=0x3:0x133 / me=umh / subme=8 / psy=1 / psy_rd=1.00:0.00 / mixed_ref=1 / me_range=16 / chroma_me=1 / trellis=1 / 8x8dct=1 / cqm=0 / deadzone=21,11 / fast_pskip=0 / chroma_qp_offset=-2 / threads=18 / sliced_threads=0 / nr=0 / decimate=1 / interlaced=0 / bluray_compat=0 / constrained_intra=0 / bframes=3 / b_pyramid=2 / b_adapt=1 / b_bias=0 / direct=1 / weightb=1 / open_gop=0 / weightp=2 / keyint=240 / keyint_min=24 / scenecut=40 / intra_refresh=0 / rc_lookahead=40 / rc=2pass / mbtree=1 / bitrate=8669 / ratetol=1.0 / qcomp=0.60 / qpmin=0 / qpmax=69 / qpstep=4 / cplxblur=20.0 / qblur=0.5 / ip_ratio=1.40 / aq=1:1.00
Language                                 : English
Default                                  : No
Forced                                   : No

Audio
ID                                       : 2
Format                                   : DTS
Format/Info                              : Digital Theater Systems
Mode                                     : 16
Format settings, Endianness              : Big
Codec ID                                 : A_DTS
Duration                                 : 1h 51mn
Bit rate mode                            : Constant
Bit rate                                 : 1 509 Kbps
Channel(s)                               : 6 channels
Channel positions                        : Front: L C R, Side: L R, LFE
Sampling rate                            : 48.0 KHz
Bit depth                                : 24 bits
Compression mode                         : Lossy
Stream size                              : 1.18 GiB (15%)
Language                                 : English
Default                                  : Yes
Forced                                   : No

 

Trailer: Play trailer
Hall.Pass.2011.1080p.BluRay.x264-SECTOR7 http://imdb.com/title/tt0480687/
Size: 7.93 GB
Show/Hide Files:
3 files
Title: Hall Pass (2011)
IMDB Rating: 5.9/10 from 100027 users Updated : 2016-01-10
Rotten Rating: 4.6/10
RottenTomatoes: 34% 41%
Genres: Comedy , Romance
Actors: Owen Wilson , Jason Sudeikis , Christina Applegate , Jenna Fischer , Nicky Whelan , Richard Jenkins , Stephen Merchant , Larry Joe Campbell , Bruce Thomas ,
Tyler Hoechlin , Derek Waters , Alexandra Daddario , Rob Moran , Lauren Bowles , Christa Beth Campbell
Director: Bobby Farrelly , Peter Farrelly
Runtime: 105
Year: 2011