Home Invasion 2016 1080p WEB-DL torrent film , film indir , torrent indir

d7e338d577a876ea19722641075837b5b0f42a5a.jpg

20229520161929620631_thumb.png.jpg49552144662472914575_thumb.png.jpg67612526389157395693_thumb.png.jpg55501841330739771690_thumb.png.jpg91848631395157312910_thumb.png.jpg59929490103641281310_thumb.png.jpg

Video
ID                                       : 1
Format                                   : AVC
Format/Info                              : Advanced Video Codec
Format profile                           : High@L4
Format settings, CABAC                   : Yes
Format settings, ReFrames                : 4 frames
Codec ID                                 : V_MPEG4/ISO/AVC
Duration                                 : 1h 28mn
Bit rate                                 : 4 810 Kbps
Width                                    : 1 920 pixels
Height                                   : 1 080 pixels
Display aspect ratio                     : 16:9
Frame rate mode                          : Constant
Frame rate                               : 23.976 fps
Color space                              : YUV
Chroma subsampling                       : 4:2:0
Bit depth                                : 8 bits
Scan type                                : Progressive
Bits/(Pixel*Frame)                       : 0.097
Stream size                              : 2.97 GiB (91%)
Title                                    : Home.Invasion.2016.1080p.WEB-DL.DD5.1.H264-FGT
Language                                 : English
Default                                  : Yes
Forced                                   : No
Color range                              : Limited
Color primaries                          : BT.709
Transfer characteristics                 : BT.709
Matrix coefficients                      : BT.709

Audio
ID                                       : 2
Format                                   : AC-3
Format/Info                              : Audio Coding 3
Mode extension                           : CM (complete main)
Format settings, Endianness              : Big
Codec ID                                 : A_AC3
Duration                                 : 1h 28mn
Bit rate mode                            : Constant
Bit rate                                 : 384 Kbps
Channel(s)                               : 6 channels
Channel positions                        : Front: L C R, Side: L R, LFE
Sampling rate                            : 48.0 KHz
Frame rate                               : 31.250 fps (1536 spf)
Compression mode                         : Lossy
Stream size                              : 243 MiB (7%)
Title                                    : Home.Invasion.2016.1080p.WEB-DL.DD5.1.H264-FGT
Language                                 : English
Default                                  : Yes
Forced                                   : No

Home.Invasion.2016.1080p.WEB-DL.DD5.1.H264-FGT http://imdb.com/title/tt5351000/
Size: 3.28 GB
Show/Hide Files:
3 files
Title: Home Invasion (Video 2016)
IMDB Rating: 8.6/10 Updated : 2016-02-01
Genres: Thriller
Actors: Natasha Henstridge , Liam Dickinson , Michael Rogers , Christian Tessier , Brenda Crichlow , Leanne Lapp , Garry Chalk , Wesley Salter , Peter Cluff ,
Lee Tichon , Gabe Khouth , Trevor Lerner , Steven Garr , David Lennon , Dawn Chubai
Director: David Tennant
Runtime: 85
Year: 2016