276

Jem and the Holograms 2015 720p BluRay x264

a53b5be1016a8bed0c1d03531cc09cdf86fe40c5.jpg_c_2.jpg

56798009913357346822_thumb.jpg

 

Video
ID                                       : 1
Format                                   : AVC
Format/Info                              : Advanced Video Codec
Format profile                           : High@L4.1
Format settings, CABAC                   : Yes
Format settings, ReFrames                : 5 frames
Codec ID                                 : V_MPEG4/ISO/AVC
Duration                                 : 1h 58mn
Bit rate                                 : 5 089 Kbps
Width                                    : 1 280 pixels
Height                                   : 536 pixels
Display aspect ratio                     : 2.40:1
Frame rate mode                          : Constant
Frame rate                               : 23.976 fps
Color space                              : YUV
Chroma subsampling                       : 4:2:0
Bit depth                                : 8 bits
Scan type                                : Progressive
Bits/(Pixel*Frame)                       : 0.309
Stream size                              : 4.21 GiB (77%)
Writing library                          : x264 core 148 r2638 7599210
Encoding settings                        : cabac=1 / ref=5 / deblock=1:0:0 / analyse=0x3:0x133 / me=umh / subme=7 / psy=1 / psy_rd=1.00:0.00 / mixed_ref=1 / me_range=16 / chroma_me=1 / trellis=1 / 8x8dct=1 / cqm=0 / deadzone=21,11 / fast_pskip=0 / chroma_qp_offset=-2 / threads=17 / lookahead_threads=2 / sliced_threads=0 / nr=0 / decimate=1 / interlaced=0 / bluray_compat=0 / constrained_intra=0 / bframes=3 / b_pyramid=2 / b_adapt=1 / b_bias=0 / direct=1 / weightb=1 / open_gop=0 / weightp=2 / keyint=250 / keyint_min=23 / scenecut=40 / intra_refresh=0 / rc_lookahead=40 / rc=2pass / mbtree=1 / bitrate=5089 / ratetol=1.0 / qcomp=0.60 / qpmin=0 / qpmax=69 / qpstep=4 / cplxblur=20.0 / qblur=0.5 / ip_ratio=1.40 / aq=1:1.00
Language                                 : English
Default                                  : Yes
Forced                                   : No

Audio
ID                                       : 2
Format                                   : DTS
Format/Info                              : Digital Theater Systems
Mode                                     : 16
Format settings, Endianness              : Big
Codec ID                                 : A_DTS
Duration                                 : 1h 58mn
Bit rate mode                            : Constant
Bit rate                                 : 1 509 Kbps
Channel(s)                               : 6 channels
Channel positions                        : Front: L C R, Side: L R, LFE
Sampling rate                            : 48.0 KHz
Frame rate                               : 93.750 fps (512 spf)
Bit depth                                : 24 bits
Compression mode                         : Lossy
Stream size                              : 1.25 GiB (23%)
Language                                 : English
Default                                  : Yes
Forced                                   : No

 

Trailer: Play trailer
Jem.and.the.Holograms.2015.720p.BluRay.x264-GECKOS http://imdb.com/title/tt3614530/
Size: 5.48 GB
Show/Hide Files:
6 files
Title: Jem and the Holograms (2015)
IMDB Rating: 3.4/10 from 1574 users Updated : 2015-12-30
Rotten Rating: 3.5/10
RottenTomatoes: 19% 49%
Genres: Adventure , Drama , Fantasy , Music
Actors: Aubrey Peeples , Stefanie Scott , Aurora Perrineau , Hayley Kiyoko , Molly Ringwald , Isabella Kai Rice , Barnaby Carpenter , Jason Kennedy, Nathan Moore ,
Juliette Lewis , Ryan Guzman , Justin Alastair , Mischke Butler , Samantha Newark , Christopher Scott
Director: Jon M. Chu
Runtime: 118
Year: 2015