255

Legend 2015 720p WEBRip

e35cd7d7a422b73562ff9949f4790668349b4669.jpg

 

79534661994766714261_thumb.png.jpg13321779719647441243_thumb.png.jpg21770481786712815260_thumb.png.jpg21470137730440515493_thumb.png.jpg91012342972994324527_thumb.png.jpg14031820881259158492_thumb.png.jpg

 

Video
ID                                       : 0
Format                                   : MPEG-4 Visual
Format profile                           : Simple@L5
Format settings, BVOP                    : No
Format settings, QPel                    : No
Format settings, GMC                     : No warppoints
Format settings, Matrix                  : Default (H.263)
Codec ID                                 : XVID
Codec ID/Hint                            : XviD
Duration                                 : 2h 5mn
Bit rate                                 : 3 695 Kbps
Width                                    : 1 280 pixels
Height                                   : 536 pixels
Display aspect ratio                     : 2.40:1
Frame rate                               : 24.000 fps
Color space                              : YUV
Chroma subsampling                       : 4:2:0
Bit depth                                : 8 bits
Scan type                                : Progressive
Compression mode                         : Lossy
Bits/(Pixel*Frame)                       : 0.224
Stream size                              : 3.24 GiB (95%)
Writing library                          : Lavc56.13.100

Audio
ID                                       : 1
Format                                   : MPEG Audio
Format version                           : Version 1
Format profile                           : Layer 3
Mode                                     : Joint stereo
Mode extension                           : MS Stereo
Codec ID                                 : 55
Codec ID/Hint                            : MP3
Duration                                 : 2h 5mn
Bit rate mode                            : Constant
Bit rate                                 : 192 Kbps
Channel(s)                               : 2 channels
Sampling rate                            : 48.0 KHz
Compression mode                         : Lossy
Stream size                              : 172 MiB (5%)
Alignment                                : Aligned on interleaves
Interleave, duration                     : 24 ms (0.58 video frame)
Interleave, preload duration             : 504 ms
Writing library                          : LAME3.99.5

 

Trailer: Play trailer
Legend.2015.720p.WEBRip.XviD.MP3-FGT http://imdb.com/title/tt3569230/
Size: 3.42 GB
Show/Hide Files:
3 files
Title: Legend (2015)
IMDB Rating: 7.3/10 from 22875 users Updated : 2015-12-30
Genres: Biography , Crime , Thriller
Actors: Tom Hardy , Emily Browning , Taron Egerton , Colin Morgan , Christopher Eccleston , Joshua Hill , Paul Anderson , Tara Fitzgerald , Nicholas Farrell ,
Adam Fogerty , Mel Raido , Major John Finley , Millie Brady , Chris Mason , Stephen Thompson , Sam Spruell
Director: Brian Helgeland
Runtime: 132
Year: 2015