escort bursa-beylikdüzü escort-bursa escort-anadolu yakası escort-avrupa yakası escort-bodrum escort-denizli escort bayan-marmaris escort-kayseri escort-sakarya escort-samsun escort-mersin escort bayan-bursa escort-kocaeli escort

100

Monte Carlo 2011 BRRip XviD

866ab9eb695178c1952d6147c9afcf1fa7dcf16d.jpg

36916263260376351442_thumb.png.jpg15171436827397456326_thumb.png.jpg66551019177973145412_thumb.png.jpg62508232550356953376_thumb.png.jpg62926282807081864022_thumb.png.jpg

 

Video
ID                                       : 0
Format                                   : MPEG-4 Visual
Format profile                           : Simple@L5
Format settings, BVOP                    : No
Format settings, QPel                    : No
Format settings, GMC                     : No warppoints
Format settings, Matrix                  : Default (H.263)
Codec ID                                 : XVID
Codec ID/Hint                            : XviD
Duration                                 : 1h 48mn
Bit rate                                 : 1 598 Kbps
Width                                    : 720 pixels
Height                                   : 390 pixels
Display aspect ratio                     : 1.85:1
Frame rate                               : 23.976 fps
Color space                              : YUV
Chroma subsampling                       : 4:2:0
Bit depth                                : 8 bits
Scan type                                : Progressive
Compression mode                         : Lossy
Bits/(Pixel*Frame)                       : 0.237
Stream size                              : 1.21 GiB (89%)
Title                                    : RARBG.COM – Monte.Carlo.2011.BRRip.XviD.MP3-RARBG
Writing library                          : Lavc56.60.100

Audio
ID                                       : 1
Format                                   : MPEG Audio
Format version                           : Version 1
Format profile                           : Layer 3
Mode                                     : Joint stereo
Codec ID                                 : 55
Codec ID/Hint                            : MP3
Duration                                 : 1h 48mn
Bit rate mode                            : Constant
Bit rate                                 : 192 Kbps
Channel(s)                               : 2 channels
Sampling rate                            : 48.0 KHz
Compression mode                         : Lossy
Stream size                              : 149 MiB (11%)
Alignment                                : Aligned on interleaves
Interleave, duration                     : 24 ms (0.58 video frame)
Interleave, preload duration             : 24 ms

 

Trailer: Play trailer
Monte.Carlo.2011.BRRip.XviD.MP3-RARBG http://imdb.com/title/tt1067774/
Size: 1.37 GB
Show/Hide Files:
5 files
Title: Monte Carlo (2011)
IMDB Rating: 5.8/10 from 30900 users Updated : 2016-01-10
Rotten Rating: 4.8/10
RottenTomatoes: 38% 49%
Genres: Adventure , Comedy , Romance
Actors: Selena Gomez , Leighton Meester , Katie Cassidy , Cory Monteith , Andie MacDowell , Brett Cullen , Amanda Fairbank-Hynes , Joe Camp III, Luke Bracey ,
Valérie Lemercier , Franck de la Personne , Máté Haumann , István Göz , Attila Árpa , Joël Lefrançois
Director: Thomas Bezucha
Runtime: 109
Year: 2011