95

Nasty Show Hosted By Artie Lange 2016 HDTV x264

9299bc21b4c9390e311482366d353f51d94e81ee.jpg

64568741306503004541_thumb.jpg

 

Nasty.Show.Hosted.By.Artie.Lange.2016.HDTV.x264-BATV

Date………..: 2016-01-10
Size………..: 513 MiB
Archives…….: 36*15
CRF…………: 19
Duration…….: 01:14:37.695
Frame Rate…..: 29.970
Resolution…..: 720×404
Aspect Ratio…: 16:9
Video Codec….: H.264
Video Bitrate..: 824 Kbps
Audio Codec….: AAC
Audio Bitrate..: 132 Kbps
Audio Channels.: 2

 

Video
ID                                       : 2
Format                                   : AVC
Format/Info                              : Advanced Video Codec
Format profile                           : High@L3.1
Format settings, CABAC                   : Yes
Format settings, ReFrames                : 5 frames
Codec ID                                 : avc1
Codec ID/Info                            : Advanced Video Coding
Duration                                 : 1h 14mn
Source duration                          : 1h 14mn
Bit rate                                 : 824 Kbps
Maximum bit rate                         : 3 286 Kbps
Width                                    : 720 pixels
Height                                   : 404 pixels
Display aspect ratio                     : 16:9
Frame rate mode                          : Constant
Frame rate                               : 29.970 (30000/1001) fps
Color space                              : YUV
Chroma subsampling                       : 4:2:0
Bit depth                                : 8 bits
Scan type                                : Progressive
Bits/(Pixel*Frame)                       : 0.095
Stream size                              : 440 MiB (86%)
Source stream size                       : 440 MiB (86%)
Writing library                          : x264 core 148 r2638 7599210
Encoding settings                        : cabac=1 / ref=5 / deblock=1:0:0 / analyse=0x3:0x113 / me=umh / subme=8 / psy=1 / psy_rd=1.00:0.00 / mixed_ref=1 / me_range=16 / chroma_me=1 / trellis=1 / 8x8dct=1 / cqm=0 / deadzone=21,11 / fast_pskip=1 / chroma_qp_offset=-2 / threads=13 / lookahead_threads=2 / sliced_threads=0 / nr=0 / decimate=1 / interlaced=0 / bluray_compat=0 / constrained_intra=0 / bframes=3 / b_pyramid=2 / b_adapt=2 / b_bias=0 / direct=3 / weightb=1 / open_gop=0 / weightp=2 / keyint=250 / keyint_min=25 / scenecut=40 / intra_refresh=0 / rc_lookahead=50 / rc=crf / mbtree=1 / crf=19.0 / qcomp=0.60 / qpmin=0 / qpmax=69 / qpstep=4 / ip_ratio=1.40 / aq=1:1.00
Encoded date                             : UTC 2016-01-10 02:44:52
Tagged date                              : UTC 2016-01-10 02:58:03
Color range                              : Limited
Matrix coefficients                      : BT.709

Audio
ID                                       : 1
Format                                   : AAC
Format/Info                              : Advanced Audio Codec
Format profile                           : LC
Codec ID                                 : 40
Duration                                 : 1h 14mn
Bit rate mode                            : Variable
Bit rate                                 : 132 Kbps
Maximum bit rate                         : 170 Kbps
Channel(s)                               : 2 channels
Channel positions                        : Front: L R
Sampling rate                            : 48.0 KHz
Frame rate                               : 46.875 fps (1024 spf)
Compression mode                         : Lossy
Stream size                              : 71.1 MiB (14%)
Encoded date                             : UTC 2016-01-10 02:58:01
Tagged date                              : UTC 2016-01-10 02:58:03