escort bursa-beylikdüzü escort-bursa escort-anadolu yakası escort-avrupa yakası escort-bodrum escort-denizli escort bayan-marmaris escort-kayseri escort-sakarya escort-samsun escort-mersin escort bayan-bursa escort-kocaeli escort

92

Sisters 2015 1080p HC WEBRip x264

00480426750795702320_thumb

 

26212945814312914300_thumb

79786188785140819593_thumb90239471387666006526_thumb78917909095346910869_thumb29966115222792987955_thumb

Video
ID                                       : 1
Format                                   : AVC
Format/Info                              : Advanced Video Codec
Format profile                           : High@L4.1
Format settings, CABAC                   : Yes
Format settings, ReFrames                : 4 frames
Codec ID                                 : avc1
Codec ID/Info                            : Advanced Video Coding
Duration                                 : 1h 57mn
Bit rate                                 : 4 000 Kbps
Width                                    : 1 920 pixels
Height                                   : 800 pixels
Display aspect ratio                     : 2.40:1
Frame rate mode                          : Constant
Frame rate                               : 23.976 (24000/1001) fps
Color space                              : YUV
Chroma subsampling                       : 4:2:0
Bit depth                                : 8 bits
Scan type                                : Progressive
Bits/(Pixel*Frame)                       : 0.109
Stream size                              : 3.26 GiB (95%)
Title                                    : Sisters.2015.1080p.HC.WEBRip.x264.AAC2.0-FGT
Writing library                          : x264 core 148 r2601 a0cd7d3
Encoding settings                        : cabac=1 / ref=4 / deblock=1:-2:-2 / analyse=0x3:0x113 / me=umh / subme=7 / psy=1 / psy_rd=1.00:0.15 / mixed_ref=1 / me_range=16 / chroma_me=1 / trellis=2 / 8x8dct=1 / cqm=0 / deadzone=21,11 / fast_pskip=1 / chroma_qp_offset=-3 / threads=40 / lookahead_threads=2 / sliced_threads=0 / nr=0 / decimate=1 / interlaced=0 / bluray_compat=0 / constrained_intra=0 / bframes=3 / b_pyramid=2 / b_adapt=2 / b_bias=0 / direct=3 / weightb=1 / open_gop=0 / weightp=2 / keyint=250 / keyint_min=25 / scenecut=40 / intra_refresh=0 / rc_lookahead=50 / rc=abr / mbtree=1 / bitrate=4000 / ratetol=1.0 / qcomp=0.60 / qpmin=0 / qpmax=69 / qpstep=4 / vbv_maxrate=31250 / vbv_bufsize=31250 / nal_hrd=none / filler=0 / ip_ratio=1.40 / aq=1:1.00

Audio
ID                                       : 2
Format                                   : AAC
Format/Info                              : Advanced Audio Codec
Format profile                           : LC
Codec ID                                 : 40
Duration                                 : 1h 57mn
Duration_LastFrame                       : 43ms
Bit rate mode                            : Variable
Bit rate                                 : 224 Kbps
Maximum bit rate                         : 31.3 Mbps
Channel(s)                               : 2 channels
Channel positions                        : Front: L R
Sampling rate                            : 48.0 KHz
Frame rate                               : 46.875 fps (1024 spf)
Compression mode                         : Lossy
Stream size                              : 189 MiB (5%)
Title                                    : Sisters.2015.1080p.HC.WEBRip.x264.AAC2.0-FGT
Default                                  : Yes
Alternate group                          : 1

 

Trailer: Play trailer
Sisters.2015.1080p.HC.WEBRip.x264.AAC2.0-FGT http://imdb.com/title/tt1850457/
Size: 3.45 GB
Show/Hide Files:
3 files
Title: Sisters (2015)
IMDB Rating: 6.6/10 from 4021 users Updated : 2015-12-30
Genres: Comedy
Actors: Amy Poehler , Tina Fey , Maya Rudolph , Ike Barinholtz , James Brolin , Dianne Wiest , John Cena , John Leguizamo , Bobby Moynihan ,
Greta Lee , Madison Davenport , Rachel Dratch , Santino Fontana , Britt Lower , Samantha Bee
Director: Jason Moore
Runtime: 118
Year: 2015