132

Standoff 2016 DVDRip x264

c01fcf04983435d9aa911b3abe8e59efae40e407.jpg_c_2.jpg

09902242711603906175_thumb.jpg

[ RELEASE iNFO ]

Video…..: 718×300 CRF19 25.000fps
Audio…..: English 2.0 AAC-LC
Subs……: None
Size……: 344 MB
Runtime…: 01:22:34
IMDb……: http://www.imdb.com/title/tt3703908/

 

Video
ID                                       : 1
Format                                   : AVC
Format/Info                              : Advanced Video Codec
Format profile                           : High@L3.1
Format settings, CABAC                   : Yes
Format settings, ReFrames                : 5 frames
Codec ID                                 : V_MPEG4/ISO/AVC
Duration                                 : 1h 22mn
Bit rate                                 : 460 Kbps
Width                                    : 718 pixels
Height                                   : 300 pixels
Display aspect ratio                     : 2.40:1
Frame rate mode                          : Constant
Frame rate                               : 25.000 fps
Color space                              : YUV
Chroma subsampling                       : 4:2:0
Bit depth                                : 8 bits
Scan type                                : Progressive
Bits/(Pixel*Frame)                       : 0.085
Stream size                              : 272 MiB (79%)
Writing library                          : x264 core 148 r2638 7599210
Encoding settings                        : cabac=1 / ref=5 / deblock=1:0:0 / analyse=0x3:0x113 / me=umh / subme=8 / psy=1 / psy_rd=1.00:0.00 / mixed_ref=1 / me_range=16 / chroma_me=1 / trellis=1 / 8x8dct=1 / cqm=0 / deadzone=21,11 / fast_pskip=1 / chroma_qp_offset=-2 / threads=9 / lookahead_threads=1 / sliced_threads=0 / nr=0 / decimate=1 / interlaced=0 / bluray_compat=0 / constrained_intra=0 / bframes=3 / b_pyramid=2 / b_adapt=2 / b_bias=0 / direct=3 / weightb=1 / open_gop=0 / weightp=2 / keyint=250 / keyint_min=25 / scenecut=40 / intra_refresh=0 / rc_lookahead=50 / rc=crf / mbtree=1 / crf=19.0 / qcomp=0.60 / qpmin=0 / qpmax=69 / qpstep=4 / vbv_maxrate=17500 / vbv_bufsize=17500 / crf_max=0.0 / nal_hrd=none / filler=0 / ip_ratio=1.40 / aq=1:1.00
Default                                  : Yes
Forced                                   : No

Audio
ID                                       : 2
Format                                   : AAC
Format/Info                              : Advanced Audio Codec
Format profile                           : LC
Codec ID                                 : A_AAC
Duration                                 : 1h 22mn
Bit rate                                 : 120 Kbps
Channel(s)                               : 2 channels
Channel positions                        : Front: L R
Sampling rate                            : 48.0 KHz
Frame rate                               : 46.875 fps (1024 spf)
Compression mode                         : Lossy
Delay relative to video                  : 9ms
Stream size                              : 71.0 MiB (21%)
Default                                  : Yes
Forced                                   : No

 

Standoff.2016.DVDRip.x264-ENSOR http://imdb.com/title/tt3703908/
Size: 344.13 MB
Show/Hide Files:
3 files
Title: Standoff (2016)
Genres: Thriller
Actors: Thomas Jane , Laurence Fishburne , Ella Ballentine , Jim Watson , John Tench , Joanna Douglas , Laura de Carteret , Ted Atherton
Director: Adam Alleca
Runtime: 80
Year: 2016