Star Wars The Force Awakens 2015 HDTS XviD- INFERNO – FULL – Torrent indir – Download – Hızlı – FİLM

Description

image

http://www.imdb.com/title/tt2488496/

Three decades after the defeat of the Galactic Empire, a new threat arises. The First Order attempts to rule the galaxy and only a rag-tag group of heroes can stop them, along with the help of the Resistance.

Director: J.J. Abrams
Writers: Lawrence Kasdan, J.J. Abrams
Stars: Daisy Ridley, John Boyega, Oscar Isaac
Genres: Action | Adventure | Fantasy | Sci-Fi
Country: USA
Language: English

Source: CHeWbacca…thanks
Line Audio: Th0ravege…thanks

Format : AVI

Format/Info : Audio Video Interleave

File size : 1.57 GiB

Duration : 2h 7mn

Overall bit rate : 1 771 Kbps

Writing application : VirtualDubMod 1.5.10.2 (build 2540/release)

Writing library : VirtualDub build 35491/release

Video

ID : 0

Format : MPEG-4 Visual

Format profile : Advanced Simple@L5

Format settings, BVOP : Yes

Format settings, QPel : No

Format settings, GMC : No warppoints

Format settings, Matrix : Default (H.263)

Muxing mode : Packed bitstream

Codec ID : XVID

Codec ID/Hint : XviD

Duration : 2h 7mn

Bit rate : 1 600 Kbps

Width : 720 pixels

Height : 320 pixels

Display aspect ratio : 2.25:1

Frame rate : 29.970 fps

Color space : YUV

Chroma subsampling : 4:2:0

Bit depth : 8 bits

Scan type : Progressive

Bits/(Pixel*Frame) : 0.232

Stream size : 1.42 GiB (90%)

Writing library : XviD 1.2.1 (UTC 2008-12-04)

Audio

ID : 1

Format : MPEG Audio

Format version : Version 1

Format profile : Layer 3

Mode : Joint stereo

Mode extension : MS Stereo

Codec ID : 55

Codec ID/Hint : MP3

Duration : 2h 7mn

Bit rate mode : Constant

Bit rate : 160 Kbps

Channel(s) : 2 channels

Sampling rate : 44.1 KHz

Stream size : 145 MiB (9%)

Alignment : Split accross interleaves

Interleave, duration : 33 ms (1.00 video frame)

Interleave, preload duration : 500 ms

Workdone:

Fix AR, perspective and rotated the video, adjusted contrast and saturation lower and sharpen up the video some.

Audio: audio was in good sync, was to flat for me so add some mids and bass to it.

image image image image image image