escort bursa-beylikdüzü escort-bursa escort-anadolu yakası escort-avrupa yakası escort-bodrum escort-denizli escort bayan-marmaris escort-kayseri escort-sakarya escort-samsun escort-mersin escort bayan-bursa escort-kocaeli escort

463

Straight Outta Compton 2015 DC 1080p BluRay x264

a835aa645aaf2eeeefd018051d1e84a8430c4136

 

55901036611739930203_thumb

 

PROUDLY PRESENTS :

Straight Outta Compton  (USA 2015)

RELEASE DATE : 06.01.2016

GENRE        : Biography, Drama, Music

RUNTIME      : 148 min

IMDB RATING  : 8.1/10 (63.009 votes)

IMDB LINK    : http://www.imdb.com/title/tt1398426/

FORMAT       : x264

RESOLUTION   : 1920 x 800

SOURCE       : BluRay

VIDEO        : 8808Kbps

AUDIO        : EN DTS @ 1509kbps

SUBS         : Fullsubs SDH

SIZE         : 12308 MB

We are currently looking for

– nice places in .eu

XX^NFO 2o13

 Hide MediaInfo

Video
ID                                       : 1
Format                                   : AVC
Format/Info                              : Advanced Video Codec
Format profile                           : High@L4.1
Format settings, CABAC                   : Yes
Format settings, ReFrames                : 5 frames
Codec ID                                 : V_MPEG4/ISO/AVC
Duration                                 : 2h 46mn
Bit rate                                 : 8 808 Kbps
Width                                    : 1 920 pixels
Height                                   : 800 pixels
Display aspect ratio                     : 2.40:1
Frame rate mode                          : Constant
Frame rate                               : 23.976 (24000/1001) fps
Color space                              : YUV
Chroma subsampling                       : 4:2:0
Bit depth                                : 8 bits
Scan type                                : Progressive
Bits/(Pixel*Frame)                       : 0.239
Stream size                              : 10.0 GiB (83%)
Writing library                          : x264 core 148 r2638 7599210
Encoding settings                        : cabac=1 / ref=5 / deblock=1:1:1 / analyse=0x3:0x133 / me=umh / subme=8 / psy=1 / psy_rd=1.00:0.00 / mixed_ref=1 / me_range=16 / chroma_me=1 / trellis=1 / 8x8dct=1 / cqm=0 / deadzone=21,11 / fast_pskip=0 / chroma_qp_offset=-2 / threads=18 / lookahead_threads=3 / sliced_threads=0 / nr=0 / decimate=1 / interlaced=0 / bluray_compat=0 / constrained_intra=0 / bframes=3 / b_pyramid=2 / b_adapt=2 / b_bias=0 / direct=3 / weightb=1 / open_gop=0 / weightp=2 / keyint=240 / keyint_min=23 / scenecut=40 / intra_refresh=0 / rc_lookahead=50 / rc=2pass / mbtree=1 / bitrate=8808 / ratetol=1.0 / qcomp=0.60 / qpmin=0 / qpmax=69 / qpstep=4 / cplxblur=20.0 / qblur=0.5 / ip_ratio=1.40 / aq=1:1.00
Language                                 : English
Default                                  : Yes
Forced                                   : No

Audio
ID                                       : 2
Format                                   : DTS
Format/Info                              : Digital Theater Systems
Mode                                     : 16
Format settings, Endianness              : Big
Codec ID                                 : A_DTS
Duration                                 : 2h 46mn
Bit rate mode                            : Constant
Bit rate                                 : 1 509 Kbps
Channel(s)                               : 6 channels
Channel positions                        : Front: L C R, Side: L R, LFE
Sampling rate                            : 48.0 KHz
Frame rate                               : 93.750 fps (512 spf)
Bit depth                                : 24 bits
Compression mode                         : Lossy
Stream size                              : 1.76 GiB (15%)
Language                                 : English
Default                                  : Yes
Forced                                   : No

Menu
00:00:00.000                             : en:00:00:00.000
00:05:46.137                             : en:00:05:46.137
00:09:53.676                             : en:00:09:53.676
00:17:30.257                             : en:00:17:30.257
00:26:33.008                             : en:00:26:33.008
00:35:38.261                             : en:00:35:38.261
00:47:27.011                             : en:00:47:27.011
00:55:36.750                             : en:00:55:36.750
01:04:40.209                             : en:01:04:40.209
01:11:25.739                             : en:01:11:25.739
01:18:58.942                             : en:01:18:58.942
01:25:45.265                             : en:01:25:45.265
01:33:54.545                             : en:01:33:54.545
01:44:19.795                             : en:01:44:19.795
01:54:01.542                             : en:01:54:01.542
02:02:53.991                             : en:02:02:53.991
02:16:10.120                             : en:02:16:10.120
02:26:22.315                             : en:02:26:22.315
02:33:04.967                             : en:02:33:04.967
02:39:19.883                             : en:02:39:19.883

Trailer: Play trailer
Straight.Outta.Compton.2015.DC.1080p.BluRay.x264-VETO http://imdb.com/title/tt1398426/
Category: Movies/x264/1080
Size: 12.05 GB
Show/Hide Files:
6 files
Title: Straight Outta Compton (2015)
IMDB Rating: 8.1/10 from 59685 users Updated : 2015-12-30
Rotten Rating: 7.5/10
RottenTomatoes: 89% 94%
Genres: Biography , Drama , Music
Actors: O’Shea Jackson Jr. , Corey Hawkins , Jason Mitchell , Neil Brown Jr. , Aldis Hodge , Marlon Yates Jr. , R. Marcos Taylor , Carra Patterson ,Alexandra Shipp ,
Paul Giamatti , Elena Goode , Keith Powers , Joshua Brockington , Sheldon A. Smith , Keith Stanfield
Director: F. Gary Gray
Runtime: 147
Year: 2015
Plot: In 1987| five young men| using brutally honest rhymes and hardcore beats| put their frustration and anger about life in the most dangerous place in America into the
most powerful weapon they had: their music. Taking us back to where it all began| Straight Outta Compton tells the true story of how these cultural rebels-armed only
with their lyrics| swagger| bravado and raw talent-stood up to the authorities that meant to keep them down and formed the world’s most dangerous group| N.W.A. And
as they spoke the truth that no one had before and exposed life in the hood| their voice ignited a social revolution that is still reverberating today.