escort bursa-beylikdüzü escort-bursa escort-anadolu yakası escort-avrupa yakası escort-bodrum escort-denizli escort bayan-marmaris escort-kayseri escort-sakarya escort-samsun escort-mersin escort bayan-bursa escort-kocaeli escort

256

Straw Dogs 2011 1080p BluRay x264

8249113516e4dd8cfda9af8d35f53eafdb852afd.jpg

37746949953091057930_thumb.png.jpg95397221635600888353_thumb.png.jpg97092976900585385258_thumb.png.jpg95529007454845213271_thumb.png.jpg15392000096307141722_thumb.png.jpg72141389327479608720_thumb.png.jpg

 

Video
ID                                       : 1
Format                                   : AVC
Format/Info                              : Advanced Video Codec
Format profile                           : High@L4.1
Format settings, CABAC                   : Yes
Format settings, ReFrames                : 5 frames
Codec ID                                 : V_MPEG4/ISO/AVC
Duration                                 : 1h 49mn
Bit rate                                 : 9 854 Kbps
Width                                    : 1 920 pixels
Height                                   : 800 pixels
Display aspect ratio                     : 2.40:1
Frame rate mode                          : Constant
Frame rate                               : 23.976 fps
Color space                              : YUV
Chroma subsampling                       : 4:2:0
Bit depth                                : 8 bits
Scan type                                : Progressive
Bits/(Pixel*Frame)                       : 0.268
Stream size                              : 7.38 GiB (85%)
Writing library                          : x264 core 118 r2085+614 d1cc25d
Encoding settings                        : cabac=1 / ref=5 / deblock=1:-3:-3 / analyse=0x3:0x113 / me=umh / subme=11 / psy=1 / fade_compensate=0.00 / psy_rd=1.05:0.10 / mixed_ref=1 / me_range=48 / chroma_me=1 / trellis=2 / 8x8dct=1 / cqm=1 / deadzone=21,11 / fast_pskip=0 / chroma_qp_offset=-2 / threads=12 / sliced_threads=0 / nr=0 / decimate=1 / interlaced=0 / bluray_compat=0 / constrained_intra=0 / fgo=0 / bframes=6 / b_pyramid=2 / b_adapt=2 / b_bias=0 / direct=3 / weightb=1 / open_gop=0 / weightp=2 / keyint=250 / keyint_min=23 / scenecut=40 / intra_refresh=0 / rc_lookahead=60 / rc=2pass / mbtree=1 / bitrate=9854 / ratetol=2.0 / qcomp=0.70 / qpmin=3 / qpmax=69 / qpstep=4 / cplxblur=20.0 / qblur=0.5 / vbv_maxrate=40000 / vbv_bufsize=30000 / nal_hrd=none / ip_ratio=1.40 / aq=2:1.00
Language                                 : English
Default                                  : Yes
Forced                                   : No

Audio
ID                                       : 2
Format                                   : DTS
Format/Info                              : Digital Theater Systems
Mode                                     : 16
Format settings, Endianness              : Big
Codec ID                                 : A_DTS
Duration                                 : 1h 49mn
Bit rate mode                            : Constant
Bit rate                                 : 1 509 Kbps
Channel(s)                               : 6 channels
Channel positions                        : Front: L C R, Side: L R, LFE
Sampling rate                            : 48.0 KHz
Frame rate                               : 93.750 fps (512 spf)
Bit depth                                : 24 bits
Compression mode                         : Lossy
Stream size                              : 1.16 GiB (13%)
Language                                 : English
Default                                  : Yes
Forced                                   : No

Text
ID                                       : 3
Format                                   : UTF-8
Codec ID                                 : S_TEXT/UTF8
Codec ID/Info                            : UTF-8 Plain Text
Language                                 : English
Default                                  : Yes
Forced                                   : No

 

Trailer: Play trailer
Straw.Dogs.2011.1080p.BluRay.x264.DTS-FGT http://imdb.com/title/tt0999913/
Size: 8.71 GB
Show/Hide Files:
3 files
Title: Straw Dogs (2011)
IMDB Rating: 5.8/10 from 26094 users Updated : 2016-01-10
Rotten Rating: 5.2/10
RottenTomatoes: 41% 34%
Genres: Horror , Thriller
Actors: James Marsden , Kate Bosworth , Alexander Skarsgård , James Woods , Dominic Purcell , Rhys Coiro , Billy Lush , Laz Alonso , Willa Holland,
Walton Goggins , Anson Mount , Drew Powell , Kristen Shaw , Megan Adelle , Jessica Dockrey
Director: Rod Lurie
Runtime: 110
Year: 2011