escort bursa-beylikdüzü escort-bursa escort-anadolu yakası escort-avrupa yakası escort-bodrum escort-denizli escort bayan-marmaris escort-kayseri escort-sakarya escort-samsun escort-mersin escort bayan-bursa escort-kocaeli escort

120

The Ape 2005 BRRip XviD

2aac305d57562905f02fb4bc4f1f0ead6c502c2c.jpg

53302641585636396659_thumb.png.jpg73700649794288770479_thumb.png.jpg99761840365922973742_thumb.png.jpg26874330198744539388_thumb.png.jpg78318497616497541141_thumb.png.jpg

 

Video
ID                                       : 0
Format                                   : MPEG-4 Visual
Format profile                           : Simple@L5
Format settings, BVOP                    : No
Format settings, QPel                    : No
Format settings, GMC                     : No warppoints
Format settings, Matrix                  : Default (H.263)
Codec ID                                 : XVID
Codec ID/Hint                            : XviD
Duration                                 : 1h 32mn
Bit rate                                 : 1 599 Kbps
Width                                    : 720 pixels
Height                                   : 390 pixels
Display aspect ratio                     : 1.85:1
Frame rate                               : 23.976 fps
Color space                              : YUV
Chroma subsampling                       : 4:2:0
Bit depth                                : 8 bits
Scan type                                : Progressive
Compression mode                         : Lossy
Bits/(Pixel*Frame)                       : 0.237
Stream size                              : 1.03 GiB (88%)
Title                                    : RARBG.COM – The.Ape.2005.BRRip.XviD.MP3-RARBG
Writing library                          : Lavc56.60.100

Audio
ID                                       : 1
Format                                   : MPEG Audio
Format version                           : Version 1
Format profile                           : Layer 3
Mode                                     : Joint stereo
Mode extension                           : MS Stereo
Codec ID                                 : 55
Codec ID/Hint                            : MP3
Duration                                 : 1h 32mn
Bit rate mode                            : Constant
Bit rate                                 : 192 Kbps
Channel(s)                               : 2 channels
Sampling rate                            : 48.0 KHz
Compression mode                         : Lossy
Stream size                              : 127 MiB (11%)
Alignment                                : Aligned on interleaves
Interleave, duration                     : 24 ms (0.58 video frame)
Interleave, preload duration             : 24 ms

 

Trailer: Play trailer
The.Ape.2005.BRRip.XviD.MP3-RARBG http://imdb.com/title/tt0403848/
Size: 1.17 GB
Show/Hide Files:
4 files
Title: The Ape (2005)
IMDB Rating: 4.5/10 from 781 users Updated : 2016-01-10
Genres: Comedy , Drama
Actors: James Franco , Brian Lally , Allison Bibicoff , Stacey Miller , Vince Jolivette , Nori Jill Phillips , Danny Molina , David Markey , Sydney DeMarco
Director: James Franco
Runtime: 92
Year: 2005