escort bursa-beylikdüzü escort-bursa escort-anadolu yakası escort-avrupa yakası escort-bodrum escort-denizli escort bayan-marmaris escort-kayseri escort-sakarya escort-samsun escort-mersin escort bayan-bursa escort-kocaeli escort

240

The Emperor in August 2015 720p BluRay x264

a4b364d95b0d34d084bed7255dda6d7776af9e8e.jpg

24838692552215319310_thumb.png.jpg63578365404749104187_thumb.png.jpg04941521731506455129_thumb.png.jpg63275007981740723598_thumb.png.jpg16063940586438391495_thumb.png.jpg79068017055898325075_thumb.png.jpg

Video
ID                                       : 1
Format                                   : AVC
Format/Info                              : Advanced Video Codec
Format profile                           : High@L4.1
Format settings, CABAC                   : Yes
Format settings, ReFrames                : 12 frames
Codec ID                                 : V_MPEG4/ISO/AVC
Duration                                 : 2h 16mn
Bit rate                                 : 6 500 Kbps
Width                                    : 1 280 pixels
Height                                   : 536 pixels
Display aspect ratio                     : 2.40:1
Frame rate mode                          : Constant
Frame rate                               : 23.976 (24000/1001) fps
Color space                              : YUV
Chroma subsampling                       : 4:2:0
Bit depth                                : 8 bits
Scan type                                : Progressive
Bits/(Pixel*Frame)                       : 0.395
Stream size                              : 6.05 GiB (89%)
Writing library                          : x264 core 142 r2431+42 c69a006 tMod [8-bit@all X86_64]
Encoding settings                        : cabac=1 / ref=12 / deblock=1:-2:-2 / analyse=0x3:0x133 / me=umh / subme=11 / psy=1 / fade_compensate=0.00 / psy_rd=1.05:0.05 / mixed_ref=1 / me_range=32 / chroma_me=1 / trellis=2 / 8x8dct=1 / cqm=0 / deadzone=21,11 / fast_pskip=0 / chroma_qp_offset=-3 / threads=12 / lookahead_threads=3 / sliced_threads=0 / nr=0 / decimate=0 / interlaced=0 / bluray_compat=0 / constrained_intra=0 / fgo=0 / bframes=10 / b_pyramid=2 / b_adapt=2 / b_bias=0 / direct=3 / weightb=1 / open_gop=0 / weightp=2 / keyint=250 / keyint_min=23 / scenecut=40 / intra_refresh=0 / rc=2pass / mbtree=0 / bitrate=6500 / ratetol=1.0 / qcomp=0.70 / qpmin=0:0:0 / qpmax=69:69:69 / qpstep=4 / cplxblur=20.0 / qblur=0.5 / ip_ratio=1.40 / pb_ratio=1.30 / aq=1:0.80 / aq-sensitivity=10.00 / aq-factor=1.00:1.00:1.00 / aq2=0 / aq3=0
Language                                 : Japanese
Default                                  : Yes
Forced                                   : No
Color range                              : Limited
Matrix coefficients                      : BT.709

Audio
ID                                       : 2
Format                                   : AC-3
Format/Info                              : Audio Coding 3
Mode extension                           : CM (complete main)
Format settings, Endianness              : Big
Codec ID                                 : A_AC3
Duration                                 : 2h 16mn
Bit rate mode                            : Constant
Bit rate                                 : 640 Kbps
Channel(s)                               : 6 channels
Channel positions                        : Front: L C R, Side: L R, LFE
Sampling rate                            : 48.0 KHz
Frame rate                               : 31.250 fps (1536 spf)
Compression mode                         : Lossy
Stream size                              : 624 MiB (9%)
Language                                 : Japanese
Default                                  : Yes
Forced                                   : No

Text #1
ID                                       : 3
Format                                   : UTF-8
Codec ID                                 : S_TEXT/UTF8
Codec ID/Info                            : UTF-8 Plain Text
Title                                    : CHS
Language                                 : Chinese
Default                                  : No
Forced                                   : No

Text #2
ID                                       : 4
Format                                   : UTF-8
Codec ID                                 : S_TEXT/UTF8
Codec ID/Info                            : UTF-8 Plain Text
Title                                    : CHT
Language                                 : Chinese
Default                                  : No
Forced                                   : No

Menu
00:00:00.000                             : en:00:00:00.000
00:11:52.795                             : en:00:11:52.795
00:19:26.165                             : en:00:19:26.165
00:31:15.707                             : en:00:31:15.707
00:43:38.491                             : en:00:43:38.491
00:53:22.032                             : en:00:53:22.032
01:08:58.718                             : en:01:08:58.718
01:21:06.361                             : en:01:21:06.361
01:37:49.489                             : en:01:37:49.489
01:50:29.915                             : en:01:50:29.915
02:04:52.235                             : en:02:04:52.235
02:11:39.892                             : en:02:11:39.892

 

Trailer: Play trailer
The.Emperor.in.August.2015.720p.BluRay.x264-WiKi http://imdb.com/title/tt4289340/
Size: 6.79 GB
Show/Hide Files:
3 files
Title: The Emperor in August (2015)
IMDB Rating: 7.0/10 from 50 users Updated : 2016-01-10
Genres: Drama , History
Actors: Kôji Yakusho , Masahiro Motoki , Tsutomu Yamazaki , Shin’ichi Tsutsumi , Tôri Matsuzaka , Kikuo Kaneuchi , Misuzu Kanno , Katsumi Kiba ,Midoriko Kimura ,
Kazushige Komatsu , Akaji Maro , Ken’ichi Matsuyama , Yûko Miyamoto , Shû Nakajima , Ikuji Nakamura
Director: Masato Harada
Runtime: 135
Year: 2015