escort bursa-beylikdüzü escort-bursa escort-anadolu yakası escort-avrupa yakası escort-bodrum escort-denizli escort bayan-marmaris escort-kayseri escort-sakarya escort-samsun escort-mersin escort bayan-bursa escort-kocaeli escort

323

The Last Witch Hunter 2015 720p WEB-DL XviD

a186c2c873ce064dd2074780850e0839619bb976.jpg

05329272109770973167_thumb.png.jpg70702438674983420989_thumb.png.jpg36959560744242211059_thumb.png.jpg37830056063448838402_thumb.png.jpg

 

Video
ID                                       : 0
Format                                   : MPEG-4 Visual
Format profile                           : Simple@L5
Format settings, BVOP                    : No
Format settings, QPel                    : No
Format settings, GMC                     : No warppoints
Format settings, Matrix                  : Default (H.263)
Codec ID                                 : XVID
Codec ID/Hint                            : XviD
Duration                                 : 1h 46mn
Bit rate                                 : 3 793 Kbps
Width                                    : 1 280 pixels
Height                                   : 720 pixels
Display aspect ratio                     : 16:9
Frame rate                               : 24.000 fps
Color space                              : YUV
Chroma subsampling                       : 4:2:0
Bit depth                                : 8 bits
Scan type                                : Progressive
Compression mode                         : Lossy
Bits/(Pixel*Frame)                       : 0.171
Stream size                              : 2.82 GiB (95%)
Writing library                          : Lavc56.13.100

Audio
ID                                       : 1
Format                                   : MPEG Audio
Format version                           : Version 1
Format profile                           : Layer 3
Mode                                     : Joint stereo
Mode extension                           : MS Stereo
Codec ID                                 : 55
Codec ID/Hint                            : MP3
Duration                                 : 1h 46mn
Bit rate mode                            : Constant
Bit rate                                 : 192 Kbps
Channel(s)                               : 2 channels
Sampling rate                            : 48.0 KHz
Compression mode                         : Lossy
Stream size                              : 146 MiB (5%)
Alignment                                : Aligned on interleaves
Interleave, duration                     : 24 ms (0.58 video frame)
Interleave, preload duration             : 504 ms
Writing library                          : LAME3.99.5

 

Trailer: Play trailer
The.Last.Witch.Hunter.2015.720p.WEB-DL.XviD.MP3-RARBG http://imdb.com/title/tt1618442/
Size: 2.97 GB
Show/Hide Files:
4 files
Title: The Last Witch Hunter (2015)
IMDB Rating: 6.1/10 from 14193 users Updated : 2015-12-30
Rotten Rating: 3.8/10
RottenTomatoes: 16% 49%
Genres: Action , Adventure , Fantasy
Actors: Vin Diesel , Rose Leslie , Elijah Wood , Ólafur Darri Ólafsson , Rena Owen , Julie Engelbrecht , Michael Caine , Joseph Gilgun , Isaach De Bankolé ,
Michael Halsey , Sloane Coombs , Lotte Verbeek , Dawn Olivieri , Inbar Lavi , Armani Jackson
Director: Breck Eisner
Runtime: 106
Year: 2015