343

The Last Witch Hunter 2015 WEB-DL x264

a186c2c873ce064dd2074780850e0839619bb976.jpg

05329272109770973167_thumb.png.jpg70702438674983420989_thumb.png.jpg36959560744242211059_thumb.png.jpg37830056063448838402_thumb.png.jpg

 

Video
ID                                       : 1
Format                                   : AVC
Format/Info                              : Advanced Video Codec
Format profile                           : High@L3.1
Format settings, CABAC                   : Yes
Format settings, ReFrames                : 5 frames
Codec ID                                 : avc1
Codec ID/Info                            : Advanced Video Coding
Duration                                 : 1h 46mn
Bit rate                                 : 1 100 Kbps
Width                                    : 720 pixels
Height                                   : 400 pixels
Display aspect ratio                     : 16:9
Frame rate mode                          : Constant
Frame rate                               : 24.000 fps
Color space                              : YUV
Chroma subsampling                       : 4:2:0
Bit depth                                : 8 bits
Scan type                                : Progressive
Bits/(Pixel*Frame)                       : 0.159
Stream size                              : 826 MiB (89%)
Title                                    : The.Last.Witch.Hunter.2015.WEB-DL.x264-RARBG
Writing library                          : x264 core 148 r2601 a0cd7d3
Encoding settings                        : cabac=1 / ref=5 / deblock=1:-2:-2 / analyse=0x3:0x113 / me=umh / subme=8 / psy=1 / psy_rd=0.90:0.00 / mixed_ref=1 / me_range=16 / chroma_me=1 / trellis=1 / 8x8dct=1 / cqm=0 / deadzone=21,11 / fast_pskip=1 / chroma_qp_offset=-2 / threads=8 / lookahead_threads=2 / sliced_threads=0 / nr=0 / decimate=1 / interlaced=0 / bluray_compat=0 / constrained_intra=0 / bframes=3 / b_pyramid=2 / b_adapt=2 / b_bias=0 / direct=3 / weightb=1 / open_gop=0 / weightp=2 / keyint=250 / keyint_min=25 / scenecut=40 / intra_refresh=0 / rc_lookahead=50 / rc=abr / mbtree=1 / bitrate=1100 / ratetol=1.0 / qcomp=0.60 / qpmin=0 / qpmax=69 / qpstep=4 / vbv_maxrate=31250 / vbv_bufsize=31250 / nal_hrd=none / filler=0 / ip_ratio=1.40 / aq=1:1.00
Language                                 : English

Audio
ID                                       : 2
Format                                   : AAC
Format/Info                              : Advanced Audio Codec
Format profile                           : LC
Codec ID                                 : 40
Duration                                 : 1h 46mn
Duration_LastFrame                       : 43ms
Bit rate mode                            : Variable
Bit rate                                 : 128 Kbps
Maximum bit rate                         : 31.3 Mbps
Channel(s)                               : 2 channels
Channel positions                        : Front: L R
Sampling rate                            : 48.0 KHz
Frame rate                               : 46.875 fps (1024 spf)
Compression mode                         : Lossy
Stream size                              : 97.5 MiB (11%)
Title                                    : The.Last.Witch.Hunter.2015.WEB-DL.x264-RARBG
Default                                  : Yes
Alternate group                          : 1

 

Trailer: Play trailer
The.Last.Witch.Hunter.2015.WEB-DL.x264-RARBG http://imdb.com/title/tt1618442/
Size: 928.93 MB
Show/Hide Files:
4 files
Title: The Last Witch Hunter (2015)
IMDB Rating: 6.1/10 from 14193 users Updated : 2015-12-30
Rotten Rating: 3.8/10
RottenTomatoes: 16% 49%
Genres: Action , Adventure , Fantasy
Actors: Vin Diesel , Rose Leslie , Elijah Wood , Ólafur Darri Ólafsson , Rena Owen , Julie Engelbrecht , Michael Caine , Joseph Gilgun , Isaach De Bankolé ,
Michael Halsey , Sloane Coombs , Lotte Verbeek , Dawn Olivieri , Inbar Lavi , Armani Jackson
Director: Breck Eisner
Runtime: 106
Year: 2015