escort bursa-beylikdüzü escort-bursa escort-anadolu yakası escort-avrupa yakası escort-bodrum escort-denizli escort bayan-marmaris escort-kayseri escort-sakarya escort-samsun escort-mersin escort bayan-bursa escort-kocaeli escort

222

Willy Wonka and the Chocolate Factory 1971 720p BluRay

c47a3da446352516055f4ecb70dd2e2f534fb0d6.jpg

95571204087970406161_thumb.png.jpg45951132578769814856_thumb.png.jpg26997818092683969666_thumb.png.jpg44393398309463678534_thumb.png.jpg19187891770858328352_thumb.png.jpg

Video
ID                                       : 1
Format                                   : AVC
Format/Info                              : Advanced Video Codec
Format profile                           : High@L4.1
Format settings, CABAC                   : Yes
Format settings, ReFrames                : 4 frames
Codec ID                                 : avc1
Codec ID/Info                            : Advanced Video Coding
Duration                                 : 1h 39mn
Bit rate                                 : 1 500 Kbps
Width                                    : 1 280 pixels
Height                                   : 720 pixels
Display aspect ratio                     : 16:9
Frame rate mode                          : Constant
Frame rate                               : 23.976 (23976/1000) fps
Color space                              : YUV
Chroma subsampling                       : 4:2:0
Bit depth                                : 8 bits
Scan type                                : Progressive
Bits/(Pixel*Frame)                       : 0.068
Stream size                              : 1.05 GiB (87%)
Writing library                          : x264 core 148 r2638M 7599210
Encoding settings                        : cabac=1 / ref=4 / deblock=1:-1:-1 / analyse=0x3:0x113 / me=umh / subme=9 / psy=1 / psy_rd=1.00:0.15 / mixed_ref=1 / me_range=24 / chroma_me=1 / trellis=2 / 8x8dct=1 / cqm=0 / deadzone=21,11 / fast_pskip=1 / chroma_qp_offset=-3 / threads=32 / lookahead_threads=4 / sliced_threads=0 / nr=0 / decimate=1 / interlaced=0 / bluray_compat=0 / constrained_intra=0 / bframes=3 / b_pyramid=2 / b_adapt=2 / b_bias=0 / direct=3 / weightb=1 / open_gop=0 / weightp=2 / keyint=250 / keyint_min=25 / scenecut=40 / intra_refresh=0 / rc_lookahead=50 / rc=2pass / mbtree=1 / bitrate=1500 / ratetol=1.0 / qcomp=0.60 / qpmin=0 / qpmax=69 / qpstep=4 / cplxblur=20.0 / qblur=0.5 / vbv_maxrate=31250 / vbv_bufsize=31250 / nal_hrd=none / filler=0 / ip_ratio=1.40 / aq=3:1.00
Encoded date                             : UTC 2016-01-09 16:31:18
Tagged date                              : UTC 2016-01-09 16:31:18

Audio
ID                                       : 2
Format                                   : AAC
Format/Info                              : Advanced Audio Codec
Format profile                           : LC
Codec ID                                 : 40
Duration                                 : 1h 39mn
Duration_LastFrame                       : 43ms
Bit rate mode                            : Constant
Bit rate                                 : 224 Kbps
Channel(s)                               : 2 channels
Channel(s)_Original                      : 6 channels
Channel positions                        : Front: L C R, Side: L R, LFE
Sampling rate                            : 48.0 KHz
Frame rate                               : 46.875 fps (1024 spf)
Compression mode                         : Lossy
Stream size                              : 160 MiB (13%)
Language                                 : English
Default                                  : Yes
Alternate group                          : 1
Encoded date                             : UTC 2016-01-09 16:31:18
Tagged date                              : UTC 2016-01-09 16:31:18

 

Trailer: Play trailer
Willy.Wonka.and.the.Chocolate.Factory.1971.720p.BluRay.H264.AAC-RARBG http://imdb.com/title/tt0067992/
Size: 1.21 GB
Show/Hide Files:
4 files
Title: Willy Wonka & the Chocolate Factory (1971)
IMDB Rating: 7.8/10 from 121263 users Updated : 2016-01-09
Rotten Rating: 7.7/10
RottenTomatoes: 89% 86%
Genres: Family , Fantasy , Musical
Actors: Gene Wilder , Jack Albertson , Peter Ostrum , Roy Kinnear , Julie Dawn Cole , Leonard Stone , Denise Nickerson , Nora Denney , Paris Themmen ,
Ursula Reit , Michael Bollner , Diana Sowle , Aubrey Woods , David Battley , Günter Meisner
Director: Mel Stuart
Runtime: 100
Year: 1971